Arcade Fire bootlegs / live recordings. This section will primarily feature professionally shot/captured live recordings, both audio and video, from upcoming gigs (2016-). Though from time to time recordings from the archives will be added too.

2016-10-30 - Voodoo Music + Arts Experience, City Park, New Orleans, LA, United States
Download: Voodoo Music + Arts Experience 2016 [720p 60fps].mkv

Note: Untouched live webcast stream. No transcoding, only remuxed to a mkv container.

Mediainfo stats:

General
Unique ID : 240089860347259786315827993277862206531 (0xB49FA0091639384488FA2375ADAF5C43)
Complete name : Arcade Fire – Voodoo Music + Arts Experience 2016 [720p 60fps].mkv
Format : Matroska
Format version : Version 4 / Version 2
File size : 4.59 GiB
Duration : 1 h 47 min
Overall bit rate : 6 107 kb/s
Writing application : mkvmerge v9.5.0 (‘Quiet Fire’) 64bit
Writing library : libebml v1.3.4 + libmatroska v1.4.5

Video
ID : 1
Format : AVC
Format/Info : Advanced Video Codec
Format profile : Main@L3.2
Format settings, CABAC : Yes
Format settings, ReFrames : 2 frames
Codec ID : V_MPEG4/ISO/AVC
Duration : 1 h 47 min
Bit rate mode : Constant
Bit rate : 6 000 kb/s
Width : 1 280 pixels
Height : 720 pixels
Display aspect ratio : 16:9
Frame rate mode : Constant
Frame rate : 60.000 FPS
Color space : YUV
Chroma subsampling : 4:2:0
Bit depth : 8 bits
Scan type : Progressive
Bits/(Pixel*Frame) : 0.109
Stream size : 4.49 GiB (98%)
Default : Yes
Forced : No

Audio
ID : 2
Format : AAC
Format/Info : Advanced Audio Codec
Format profile : LC
Codec ID : A_AAC
Duration : 1 h 47 min
Bit rate : 126 kb/s
Channel(s) : 2 channels
Channel positions : Front: L R
Sampling rate : 44.1 kHz
Frame rate : 43.066 FPS (1024 spf)
Compression mode : Lossy
Delay relative to video : -20 ms
Stream size : 96.7 MiB (2%)
Default : Yes
Forced : No